Login
Username:
Password:
Remember Me:
[Signup]
[Recover Account]
Friends
BTScene
Friendly site

Ale Torrenty Team
Friendly site

Anime RG
Friendly site

KaranPC
Friendly site

P2PDL.com
Friendly site

Free Tutorials & Courses
Friendly site
Torrent Details For "Justice League 2017 1080p WEBRip x264 ESub"

Justice League 2017 1080p WEBRip x264 ESub

To download this torrent, you need a BitTorrent client: Vuze or BTGuard
Download this torrent
Download using Magnet Link





Health:
Seeds: 1,114
Leechers: 1,950
Completed: 2,827 
Last Checked: 11-02-2018 17:41:20

Uploader Reputation points : 1718
External: Torrent




Write a Review for the Uploader:   10   Say Thanks with one good review:


Details
Name:Justice League 2017 1080p WEBRip x264 ESub
Description:



General
Format                      : Matroska
Format version              : Version 4 / Version 2
File size                   : 2.58 GiB
Duration                    : 1 h 59 min
Overall bit rate            : 3 087 kb/s

Video
ID                          : 1
Format                      : AVC
Format/Info                 : Advanced Video Codec
Format profile              : [email protected]
Format settings             : CABAC / 4 Ref Frames
Format settings, CABAC      : Yes
Format settings, ReFrames   : 4 frames
Codec ID                    : V_MPEG4/ISO/AVC
Duration                    : 1 h 59 min
Bit rate                    : 2 900 kb/s
Width                       : 1 920 pixels
Height                      : 1 080 pixels
Display aspect ratio        : 16:9
Frame rate mode             : Constant
Frame rate                  : 29.970 (30000/1001) FPS
Color space                 : YUV
Chroma subsampling          : 4:2:0
Bit depth                   : 8 bits
Scan type                   : Progressive
Bits/(Pixel*Frame)          : 0.047
Stream size                 : 2.42 GiB (94%)
Writing library             : x264 core 148 r2708 86b7198
Default                     : Yes
Forced                      : No

Audio
ID                          : 3
Format                      : AAC
Format/Info                 : Advanced Audio Codec
Format profile              : LC
Codec ID                    : A_AAC-2
Duration                    : 1 h 59 min
Bit rate                    : 196 kb/s
Channel(s)                  : 2 channels
Channel positions           : Front: L R
Sampling rate               : 44.1 kHz
Frame rate                  : 43.066 FPS (1024 SPF)
Compression mode            : Lossy
Stream size                 : 168 MiB (6%)
Language                    : English
Default                     : Yes
Forced                      : No

Text
ID                          : 2
Format                      : UTF-8
Codec ID                    : S_TEXT/UTF8
Codec ID/Info               : UTF-8 Plain Text
Duration                    : 1 h 49 min
Bit rate                    : 43 b/s
Count of elements           : 1279
Stream size                 : 35.3 KiB (0%)
Language                    : English
Default                     : Yes
Forced                      : No














YouTube Video:
Category:Movies
Language:English  English
Total Size:2.58 GB
Info Hash:26730320AAE253AC06E246C2B22D699D13E4D310
Added By:MovieFreak Verified UploaderMovie Pirate
Date Added:10-02-2018 22:30:36
Torrent Status:Torrent Verified


Ratings:Not Yet Rated (Log in to rate it)


Tracker:
udp://tracker.coppersurfer.tk:6969/announce

This Torrent also has backup trackers
URLSeedersLeechersCompleted
udp://tracker.coppersurfer.tk:6969/announce105166308
udp://tracker.leechers-paradise.org:6969/announce95161277
udp://inferno.demonoid.pw:3391/announce80158181
udp://tracker.tntvillage.scambioetico.org:2710/announce000
udp://tracker.pirateparty.gr:6969/announce105166308
udp://9.rarbg.com:2770/announce79143308
udp://public.popcorn-tracker.org:6969/announce79150185
udp://tracker.zer0day.to:1337/announce90146227
http://bigfoot1942.sektori.org:6969/announce000
udp://ipv4.tracker.harry.lu:80/announce32940
udp://shadowshq.yi.org:6969/announce95161277
udp://tracker.vanitycore.co:6969/announce81154184
udp://tracker.opentrackr.org:1337/announce8814468
udp://explodie.org:6969/announce000
udp://tracker.zer0day.to:1337/announce90146227
udp://tracker.leechers-paradise.org:6969/announce95161277
udp://coppersurfer.tk:6969/announce000


File List: 



Warning! Do not Download Torrents Without a VPN!
Your IP Address is .   Location is
Your Internet Provider and Government can track your torrent Activity! Hide your IP ADDRESS with a VPN!
We strongly recommend using SpyOFF VPN to anonymize your Torrenting.It's FREE!
START YOUR FREE TRIAL NOW!


Comments
No comments still posted